<?xml version="1.0" standalone="no"?>
<!DOCTYPE svg PUBLIC "-//W3C//DTD SVG 1.1//EN" "http://www.w3.org/Graphics/SVG/1.1/DTD/svg11.dtd" >
<svg xmlns="http://www.w3.org/2000/svg">
  <metadata>Created by iconfont</metadata>
  <defs>
  <font id="iconfont" horiz-adv-x="1024">
    <font-face
      font-family="iconfont"
      font-weight="400"
      font-stretch="normal"
      units-per-em="1024"
      ascent="896"
      descent="-128"
    />
      <missing-glyph />
      
      <glyph glyph-name="icon_qiyou" unicode="&#58958;" d="M909.233231 310.862769c-49.506462-166.360615-307.2-337.604923-461.942154-337.604923 28.16 28.16 7.561846 61.991385-28.120615 72.585846a394.673231 394.673231 0 0 0-264.940308 265.019077h89.245538a309.484308 309.484308 0 0 1 576.512 0h89.245539zM531.731692 817.230769c178.412308 0 329.097846-118.626462 377.501539-281.324307H819.987692a309.484308 309.484308 0 0 1-576.512 0H154.230154C202.673231 698.564923 353.319385 817.230769 531.731692 817.230769zM531.692308 367.104l126.582154 140.681846H1024L967.719385 423.384615H686.473846L531.692308 240.521846 376.950154 423.384615H95.704615L39.384615 507.785846h365.725539L531.692308 367.064615zM419.170462 338.983385H151.906462l-42.180924 56.280615H376.910769l42.220308-56.280615zM911.478154 338.983385h-267.264l42.220308 56.280615h267.224615l-42.180923-56.280615zM630.153846 521.846154l-98.461538-112.521846L433.230769 521.846154h196.923077z"  horiz-adv-x="1024" />
      
      <glyph glyph-name="LOGO" unicode="&#58957;" d="M1464.07424 527.23712h-255.63136l-14.29504-161.9968h240.39424l6.43072 11.4688h57.7536l-40.5504-70.61504-269.5168-0.6144-14.1312-158.9248h304.90624l-5.16096-59.31008h-304.78336l-12.94336-146.39104c-1.10592-16.22016-7.41376-31.66208-18.0224-44.07296a46.12096 46.12096 0 0 0-36.0448-18.2272h-136.35584l32.52224 59.392h31.21152a32.3584 32.3584 0 0 1 24.00256 11.8784c7.29088 8.23296 11.6736 18.67776 12.32896 29.65504l9.58464 108.01152h-303.18592l5.24288 59.392h303.18592l14.04928 158.80192h-298.51648l5.28384 59.35104h298.47552l14.336 161.9968h-290.73408l5.20192 59.35104H1440.1536l9.25696 16.67072h57.7536l-43.08992-75.776zM2980.0448 592.65024c-6.144-8.43776-11.42784-17.48992-15.64672-26.99264a107.3152 107.3152 0 0 1-7.45472-33.21856l-5.7344-64.34816-200.704-163.0208h181.0432l8.84736 12.4928 61.8496-0.8192-44.52352-71.59808h-254.89408l-26.86976-304.25088a74.3424 74.3424 0 0 0-18.35008-44.07296 46.44864 46.44864 0 0 0-35.51232-18.14528h-153.47712l33.21856 59.35104h46.73536a31.744 31.744 0 0 1 24.00256 12.4928c7.08608 8.15104 11.30496 18.35008 12.04224 29.0816l23.51104 265.74848H2298.6752l5.24288 59.392h322.7648l234.04544 207.74912 1.80224 20.80768h-505.856l5.24288 59.35104h618.0864zM417.3824 439.21408l-19.0464-4.17792-22.44608-68.48512h51.44576l-5.24288-59.392-148.11136-0.04096-8.43776-95.60064H405.0944l-5.20192-59.35104H260.3008l-18.47296-208.65024a79.54432 79.54432 0 0 0-18.0224-45.6704 45.71136 45.71136 0 0 0-35.96288-18.6368H92.93824l27.0336 59.35104a30.76096 30.76096 0 0 1 24.04352 12.4928c7.08608 8.51968 11.264 19.0464 12.00128 30.02368l15.40096 171.008H31.17056l5.28384 59.35104h140.20608l8.47872 95.55968H37.80608l5.28384 59.392H92.16l-10.36288 68.4032-17.53088 4.13696 3.76832 42.5984 108.70784-21.7088 9.66656-93.47072h95.10912l26.2144 93.42976 113.37728 21.7088-3.80928-42.27072zM112.39424-4.3008L0-120.54528l5.48864 62.2592 23.22432 33.25952 17.16224 131.80928h80.24064l-13.7216-111.0016zM368.55808-25.06752l17.28512-33.21856-5.5296-62.2592-91.79136 116.28544 5.9392 111.0016h80.2816l-6.18496-131.80928zM725.48352 529.408h-114.56512a68.8128 68.8128 0 0 1-29.98272-7.7824c-11.91936-6.67648-21.21728-17.16224-26.37824-29.696l-9.4208-105.8816h201.15456l-5.07904-57.1392h-31.9488l-39.89504-449.49504h-89.62048l39.77216 449.49504h-79.4624l-26.09152-295.89504-115.46624-152.7808 6.9632 78.88896 14.58176 23.7568L473.4976 588.3904h89.66144l-2.17088-20.80768c7.65952 8.43776 17.69472 14.45888 28.83584 17.2032 7.82336 1.96608 15.89248 3.19488 23.9616 3.60448h86.54848l10.07616 17.77664h61.56288L725.48352 529.408zM1643.60192 88.064l0.90112 1.06496 12.57472 10.36288c12.00128 9.46176 25.92768 16.384 40.79616 20.19328 8.68352 2.58048 17.73568 3.85024 26.8288 3.6864h495.616a104.448 104.448 0 0 1-13.63968-23.552 114.11456 114.11456 0 0 1-6.84032-32.768l-11.50976-130.58048h32.68608l-5.03808-57.05728H1504.6656l5.07904 57.05728h26.4192l16.30208 187.1872h94.33088l-3.19488-35.59424z m74.38336-24.3712a127.13984 127.13984 0 0 1-53.4528-18.18624c-7.3728-5.5296-14.21312-11.79648-20.35712-18.67776-2.58048-2.8672-4.83328-5.98016-6.7584-9.33888l-7.20896-81.01888h86.54848l11.4688 127.75424-10.24-0.53248z m94.6176-127.22176h91.99616l11.55072 127.75424h-91.91424l-11.63264-127.7952z m187.88352 0h93.47072l11.30496 127.75424h-93.51168l-11.264-127.7952zM1669.03808 322.72384a2.4576 2.4576 0 0 1 1.6384 1.06496c2.8672 2.74432 6.5536 5.81632 10.97728 9.29792a115.0976 115.0976 0 0 0 38.33856 19.12832c8.27392 2.41664 16.75264 3.93216 25.31328 4.62848h483.24608c-5.5296-7.00416-10.0352-14.7456-13.35296-23.01952a115.01568 115.01568 0 0 1-5.98016-30.63808l-7.3728-83.10784a74.9568 74.9568 0 0 0-17.03936-42.55744 43.54048 43.54048 0 0 0-34.24256-17.8176H1570.65216l17.44896 197.26336h84.00896l-3.072-34.24256z m64.22528-23.10144a116.9408 116.9408 0 0 1-25.88672-5.89824 86.4256 86.4256 0 0 1-44.60544-41.5744l-6.5536-73.728 31.5392 38.2976h399.81056a32.11264 32.11264 0 0 1 22.24128 8.8064 37.51936 37.51936 0 0 1 11.22304 25.47712l4.21888 48.61952h-391.9872zM2248.54016 454.57408l-41.69728-66.3552H1582.77632l5.24288 59.31008h594.04288l5.28384 7.29088 61.19424-0.2048zM1692.2624 556.35968a6.84032 6.84032 0 0 0 2.6624 3.072c2.82624 2.74432 5.9392 5.5296 9.29792 8.27392 10.8544 7.3728 23.10144 12.53376 36.00384 15.07328 7.90528 1.4336 15.9744 2.33472 24.04352 2.62144h472.8832l28.91776-114.19648H2174.976l-22.28224 57.1392h-396.04224a273.2032 273.2032 0 0 1-32.64512-3.6864 88.4736 88.4736 0 0 1-27.0336-9.87136c-7.33184-4.25984-13.80352-9.87136-19.00544-16.5888-3.11296-4.17792-5.7344-8.72448-7.7824-13.5168l-5.12-13.5168h-99.69664l37.39648 114.23744h97.56672l-8.02816-29.0816zM408.1664 528.26112h-352.256l5.12 59.1872h321.9456l7.12704 10.40384h61.56288L408.1664 528.26112zM461.90592 726.17984L232.6528 607.0272l-1.80224-0.86016 0.08192 0.86016 39.40352 271.64672 191.52896-152.49408z"  horiz-adv-x="3031" />
      
      <glyph glyph-name="icon_daiyu" unicode="&#58953;" d="M487.6288 705.418971c118.272-4.213029 207.915886-36.498286 212.406857-116.1216l0.160914-6.392685 0.424229-122.865372h9.1136l18.066286-0.336457 13.165714-0.497371 12.785371-0.672915 16.384-1.272685c80.149943-7.504457 132.754286-31.217371 136.133486-88.093257l0.2048-6.026972v-218.053486l0.087772-14.189714 0.4096-14.423771-0.043886-12.288-0.570514-16.939886c0-37.156571-41.472-59.626057-103.570286-73.274514l-7.855543-1.682286-17.2032-3.072a451.832686 451.832686 0 0 0-110.065371-3.832686l-16.7936 1.726172-18.900115 2.647771-17.525028 3.203657c-38.487771 7.7824-70.436571 18.666057-91.428572 33.455543l5.807543 1.2288a391.299657 391.299657 0 0 0-83.894857-8.864914c-119.0912 0-219.560229 48.449829-224.519314 126.390857l-0.190172 6.026971-0.789943 34.084572 0.043886 15.0528 0.4096 11.000686-0.043886 0.190171H219.428571V573.630171h0.4096a111.425829 111.425829 0 0 0-0.4096 9.274515c0 82.139429 86.601143 116.399543 203.307886 122.119314l9.274514 0.394971L450.4576 705.828571h18.724571l18.446629-0.4096zM837.778286 153.131886c-37.010286-12.770743-82.914743-18.870857-137.6256-18.870857-54.330514 0-99.913143 5.895314-136.747886 18.241828l0.702171-53.467428 0.906972-0.672915c1.2288-0.848457 2.808686-1.857829 4.651886-2.911085l2.9696-1.550629c11.556571-5.895314 28.233143-11.498057 47.250285-15.842743l8.235886-1.813943 15.403886-2.779428 16.705828-2.369829c30.837029-3.818057 62.025143-3.832686 92.862172-0.043886l12.463543 1.7408 15.6672 2.823315c20.962743 4.3008 38.912 10.020571 50.746514 16.003657l2.56 1.360457 3.3792 2.004114 0.2048 42.042515h-0.336457v16.091428z m-551.029029 53.087085l0.833829-33.967542c0-22.3232 68.476343-56.407771 157.344914-56.407772 17.247086 0 34.069943 1.272686 50.117486 3.627886l-0.073143 17.554286h-0.497372v42.861714c-11.176229-0.731429-22.7328-1.053257-34.669714-1.053257-69.588114 0-127.458743 11.8784-172.997486 36.308114l-0.058514-8.923429z m551.072914 75.585829c-16.091429-5.2224-34.567314-8.952686-55.105828-11.395657l-12.580572-1.3312-16.427885-1.272686a649.216 649.216 0 0 0-22.9376-1.097143l-11.907657-0.292571-18.402743-0.175543h-9.245257l-18.110172 0.394971-13.121828 0.438858-12.785372 0.731428-16.384 1.272686c-25.614629 2.399086-48.420571 6.436571-67.701028 12.682971v-58.397257c29.125486-15.886629 74.795886-24.517486 137.040457-24.517486 62.712686 0 108.587886 8.967314 137.669485 25.439086v57.519543z m-549.741714 17.1008c35.679086-32.738743 92.408686-49.854171 171.739429-49.854171 12.0832 0 23.683657 0.438857 34.742857 1.184914l-0.087772 70.144c-11.176229-0.7168-22.776686-1.053257-34.669714-1.053257-68.929829 0-126.390857 11.6736-171.739428 35.605943v-56.027429z m404.333714 96.4608l-7.972571-0.160914-7.826286-0.248686-15.140571-0.848457-14.453029-1.272686c-49.298286-4.885943-83.909486-16.340114-83.909485-29.739886 0-12.668343 31.246629-23.712914 76.609828-28.9792l7.255772-0.760685 14.482285-1.258057 15.184457-0.789943c7.709257-0.351086 15.681829-0.482743 23.815315-0.482743l12.0832 0.087771 11.761371 0.380343 15.184457 0.848457 14.423772 1.214172c49.298286 4.885943 83.909486 16.384 83.909485 29.739885 0 12.726857-31.232 23.727543-76.609828 28.993829l-7.299657 0.789943-14.423772 1.2288-15.184457 0.848457c-7.753143 0.292571-15.681829 0.453486-23.844571 0.453486l-8.045715-0.043886z m-60.533028 92.5696c-34.435657-15.7696-79.872-24.224914-131.306057-26.960457l-12.946286-0.629029-18.432-0.438857-9.376914-0.043886h-4.7104l-4.651886 0.043886-18.432 0.438857c-56.612571 2.018743-106.656914 10.488686-143.945143 27.472457v-48.376685c35.679086-32.738743 92.408686-49.839543 171.739429-49.839543 13.736229 0 26.814171 0.497371 39.204571 1.506743 13.765486 39.599543 59.011657 58.1632 123.567543 65.272685l8.221257 0.833829 1.170286 0.087771-0.1024 30.632229zM459.819886 635.5968c-94.837029 0-171.695543-23.581257-171.710172-52.662857 0-29.140114 76.858514-52.750629 171.710172-52.750629 94.837029 0 171.695543 23.610514 171.695543 52.721372s-76.858514 52.692114-171.695543 52.692114zM82.929371 416.694857c0-36.951771 15.842743-67.627886 53.6576-67.627886-37.814857 0-53.6576-35.152457-53.6576-67.613257 0 32.475429-13.4144 67.613257-53.672228 67.613257 40.257829 0 53.672229 30.676114 53.672228 67.627886zM971.9808 537.424457c4.798171-20.187429 9.596343-24.224914 30.134857-29.608228-20.538514-5.383314-24.649143-9.4208-30.134857-29.608229-5.471086 20.187429-9.581714 24.224914-30.134857 29.608229 20.553143 5.383314 24.663771 9.4208 30.134857 29.608228zM906.24 661.942857c13.692343-51.829029 25.336686-63.268571 78.760229-77.399771-53.423543-13.458286-64.365714-24.912457-78.760229-77.399772-13.692343 52.487314-25.336686 63.268571-78.760229 77.399772 53.423543 13.458286 64.380343 24.897829 78.760229 77.399771zM109.714286 764.342857a51.2 51.2 0 1 0 0-102.4 51.2 51.2 0 0 0 0 102.4z m0-21.942857a29.257143 29.257143 0 1 1 0-58.514286 29.257143 29.257143 0 0 1 0 58.514286z"  horiz-adv-x="1024" />
      
      <glyph glyph-name="icon_guojihua" unicode="&#58954;" d="M484.893257 689.152c194.179657 0 351.612343-157.418057 351.612343-351.612343 0-194.179657-157.432686-351.597714-351.612343-351.597714-194.194286 0-351.612343 157.403429-351.626971 351.597714C133.266286 531.748571 290.698971 689.152 484.893257 689.152z m285.184-156.481829c-3.832686 0-17.890743-43.4176-31.9488-44.704914-14.043429-1.272686-52.355657 1.272686-58.119314 7.665372-5.7344 6.378057-10.8544 14.043429-17.232457 14.043428-6.392686 0-6.392686 3.832686-17.890743-1.272686-11.498057-5.12-24.283429-12.770743-29.3888-20.436114-5.12-7.650743 3.832686-22.996114-22.981486-22.996114-26.8288 0-26.843429 6.392686-30.676114-11.498057s-8.367543-57.461029 2.852571-60.035657c11.205486-2.545371 44.426971-41.442743 41.866972-53.935543-2.56-12.4928-2.56-31.6416 2.56-43.154286 5.105371-11.483429 8.923429-15.316114 28.086857-14.043429 19.163429 1.272686 35.371886 11.498057 40.667428-3.832685 5.3248-15.330743 15.506286-49.854171-2.340571-46.372572 0 0-28.086857 8.557714-38.326857 0-10.210743-8.543086-75.3664-36.6592-75.3664-36.6592-0.585143 0.643657-59.216457 63.663543-150.718172 22.996115l-15.330742-10.225372-25.541486 5.558857s-33.221486 9.771886-44.719543 7.211886l-11.498057-2.545371v5.12s-10.225371-26.843429 0-53.672229c10.210743-26.8288 34.494171-72.8064 47.264914-85.577143 12.770743-12.785371 28.101486-37.054171 39.599543-45.992228 11.498057-8.938057 11.498057-25.541486 25.541486-24.2688 14.043429 1.272686 30.661486 40.872229 26.8288 51.0976-3.818057 10.225371 70.261029 28.101486 70.261028 28.101485 0.277943 0.029257 31.9488 4.096 38.326857 65.141029 1.1264 10.912914 1.872457 18.666057 2.296686 24.049371 9.610971 4.242286 47.250286 19.821714 70.509714 14.277486 26.8288-6.378057 33.206857 8.528457 56.2176 11.936914l39.599543 36.615315c0.394971 0.453486 65.111771 75.395657 57.490286 88.137142-7.68 12.770743-7.68 47.264914-8.952686 54.930286-1.272686 7.665371 10.181486 56.173714 9.552457 62.581029-0.629029 6.392686 9.610971 30.676114 9.610972 30.676114-0.292571 0.585143-24.283429 51.053714-28.101486 51.082971z m-530.285714 35.766858c-37.083429-19.104914-83.938743-170.452114-84.158172-171.154286v-43.446857l8.938058-38.326857s7.665371 11.498057 7.665371 23.595885c0 12.0832 8.952686 10.898286 8.952686 26.229029s11.483429 10.225371 19.163428 20.436114c7.650743 10.210743 11.483429-3.832686 17.876115-5.12 6.378057-1.272686 5.12-11.483429 11.498057-23.625143 6.392686-12.141714 22.996114-19.792457 28.101485-17.525028 5.12 2.282057 24.239543 19.426743 25.541486 23.259428 1.272686 3.847314 26.799543 25.541486 26.112 30.661486-0.702171 5.12 7.109486 31.9488 12.214857 44.719543 5.090743 12.712229 0.058514 62.5664 0 63.107657 7.650743 4.330057-70.2464 36.527543-60.035657 40.374857 10.166857 3.803429 15.272229 45.582629 15.330743 45.9776l-37.185829-19.163428z m215.069257 95.817142s-22.030629 12.770743-29.696 5.105372c-7.650743-7.665371-34.494171 1.272686-103.467886-39.599543 0.190171-0.2048 15.213714-16.193829 18.519772-15.228343-1.9456-3.525486-7.899429-14.262857-12.141715-20.904228-5.046857-7.928686-6.3488-8.572343-6.378057-8.586972l5.12-7.650743-5.12-1.272685c5.12 1.258057 7.665371-14.058057 15.067429-16.618058 7.387429-2.56-2.296686-16.603429 0.263314-19.163428 2.56-2.545371-1.272686-25.556114 0-39.087543 1.272686-13.546057 6.392686-1.784686 12.770743 0 6.392686 1.784686 16.618057 5.880686 17.481143 9.713371 0.877714 3.832686 2.954971 15.316114 0.4096 21.7088-2.56 6.392686 7.650743 12.770743 12.770743 17.451886 5.12 4.681143 25.556114-0.848457 29.3888 0 3.818057 0.877714 6.378057 11.936914 6.378057 22.147657 0 10.225371-17.890743-1.272686-27.9552 0-9.976686 1.272686-11.615086 26.287543-11.644343 26.741029l0.585143 21.650286c4.110629 1.667657 4.783543 3.803429-1.872457 6.538971 0 0 21.723429 5.12 26.8288-6.378057 5.12-11.498057 7.665371-10.386286 8.938057-21.796572 1.287314-11.410286 21.284571-1.375086 25.980343 0 4.681143 1.345829 17.451886 16.676571 17.451885 16.676572-3.832686 8.952686-6.378057 15.345371-6.378057 15.345371l6.699886 15.316115v17.876114z m108.266057-70.261028c1.565257 3.818057-21.7088 10.210743-24.283428-2.56-2.545371-12.770743-17.876114-19.207314-17.876115-19.207314 0.160914-0.263314 8.923429-15.389257 6.392686-26.770286-2.56-11.512686-11.498057-14.058057-6.392686-24.283429 5.12-10.210743 15.330743-14.043429 17.890743-19.163428 2.56-5.105371 23.552 16.618057 25.834057 24.283428 2.267429 7.650743 13.487543 15.316114 23.215543 12.770743 9.698743-2.56 35.254857-8.938057 40.374857-6.392686 5.105371 2.56 34.084571 4.783543 28.086857 12.770743-2.165029 2.896457-16.603429 28.116114-34.479542 20.450743-17.744457-7.606857-29.198629 8.674743-29.374172 8.923429 0 0-26.243657 26.814171-27.823543 23.010743l-1.565257-3.832686zM67.232914 124.693943a51.2 51.2 0 1 0 0-102.4 51.2 51.2 0 0 0 0 102.4z m0-21.942857a29.257143 29.257143 0 1 1 0-58.514286 29.257143 29.257143 0 0 1 0 58.514286zM952.671086 453.339429c0-35.518171 14.511543-73.991314 58.104685-73.991315-43.593143 0-58.104686-33.572571-58.104685-74.020571 0 40.448-17.159314 74.020571-58.104686 74.020571 40.945371 0 58.104686 38.473143 58.104686 73.991315zM118.432914 761.929143c14.818743-57.461029 27.428571-69.251657 85.269943-84.714057-57.841371-14.730971-69.705143-27.253029-85.284571-84.714057-14.818743 56.714971-27.428571 69.237029-85.255315 84.699428 57.826743 14.7456 69.690514 27.267657 85.269943 84.728686zM930.421029 636.679314c12.609829 0 22.235429-9.567086 22.250057-22.089143 0-11.776-10.386286-22.089143-22.235429-22.089142-12.609829 0-22.250057 9.581714-22.250057 22.089142 0 12.522057 9.640229 22.089143 22.235429 22.089143zM47.250286 793.6c5.924571-22.089143 10.386286-26.5216 32.621714-32.416914-22.235429-5.895314-26.697143-10.298514-32.621714-32.402286C42.042514 750.884571 36.864 755.287771 14.628571 761.183086 36.864 767.0784 41.311086 771.510857 47.250286 793.6z"  horiz-adv-x="1024" />
      
      <glyph glyph-name="icon_fuli" unicode="&#58955;" d="M519.314286 544.914286a87.771429 87.771429 0 0 0 35.108571-168.213943v-121.417143a35.108571 35.108571 0 0 0-70.217143 0v121.417143A87.771429 87.771429 0 0 0 519.314286 544.914286zM515.2768 793.6c10.122971-0.073143 20.041143-2.925714 28.701257-8.192 19.5584-11.3664 80.457143-70.670629 133.456457-83.602286 35.357257-7.4752 71.416686-11.190857 107.563886-11.044571h28.437943a50.453943 50.453943 0 0 0 34.347886-14.526172 50.805029 50.805029 0 0 0 17.671314-38.473142v-130.311315c0-67.291429-6.304914-126.420114-17.188572-178.322285 36.059429 12.053943 46.270171 26.404571 57.973029 71.255771 14.379886-52.487314 25.336686-63.926857 78.760229-77.385143-53.423543-14.145829-65.067886-25.6-78.760229-77.4144-12.551314 45.845943-22.498743 60.386743-60.416 72.309029C775.168 6.2464 537.131886-37.551543 525.048686-40.228571h-19.5584C492.544-38.648686 168.228571 24.137143 168.228571 507.465143v130.296686a51.741257 51.741257 0 0 0 17.364115 38.473142 50.176 50.176 0 0 0 35.6352 14.526172h25.556114a514.647771 514.647771 0 0 1 107.593143 11.044571 325.588114 325.588114 0 0 1 129.3312 83.587657A68.490971 68.490971 0 0 0 515.2768 793.6z m-0.292571-135.036343a55.939657 55.939657 0 0 1-20.0704-4.885943 219.282286 219.282286 0 0 0-87.317943-56.495543c-23.552-5.251657-47.601371-7.767771-71.709257-7.519085h-16.735086a32.343771 32.343771 0 0 1-23.405714-9.801143 35.006171 35.006171 0 0 1-11.893029-25.965714v-88.122515c0-327.211886 216.649143-371.273143 225.572571-371.273143h12.624458c9.289143 2.2528 227.766857 43.300571 227.766857 371.273143v86.2208c0 9.991314-3.905829 19.573029-10.869029 26.624a36.937143 36.937143 0 0 1-26.287543 11.044572h-17.466514a314.836114 314.836114 0 0 0-71.709257 7.519085 313.812114 313.812114 0 0 0-89.556114 56.495543 41.545143 41.545143 0 0 1-18.944 4.885943zM971.9808 429.333943c5.485714-20.187429 9.596343-24.239543 30.134857-29.622857-20.538514-5.383314-25.336686-9.4208-30.134857-29.608229-5.471086 20.187429-9.581714 24.224914-30.134857 29.608229 20.553143 5.383314 24.663771 9.435429 30.134857 29.622857zM82.929371 626.0736c0-32.4608 15.842743-67.613257 53.6576-67.613257-37.814857 0-53.6576-30.676114-53.6576-67.627886 0 36.951771-13.4144 67.627886-53.672228 67.627886 40.257829 0 53.672229 35.152457 53.672228 67.613257zM103.467886 793.6c11.644343 0 20.553143-8.762514 20.553143-20.187429 0-11.454171-8.923429-20.187429-20.553143-20.187428-10.9568 0-20.538514 9.406171-20.538515 20.187428C82.929371 784.822857 91.823543 793.6 103.467886 793.6z"  horiz-adv-x="1024" />
      
      <glyph glyph-name="icon_chengchang" unicode="&#58956;" d="M321.872457 147.6608a14.189714 14.189714 0 0 0 14.248229-13.984914v-116.0192c0-7.753143-6.407314-13.999543-14.248229-13.999543h-87.8592a14.1312 14.1312 0 0 0-14.248228 13.999543v116.0192c0 7.753143 6.407314 13.984914 14.248228 13.984914h87.8592zM678.2976 239.118629c7.855543 0 14.262857-6.2464 14.262857-13.999543v-207.4624c0-7.753143-6.407314-13.999543-14.262857-13.999543h-89.731657a14.1312 14.1312 0 0 0-14.248229 13.999543V225.119086c0 7.753143 6.392686 13.999543 14.248229 13.999543h89.731657zM856.561371 381.952c7.840914 0 14.248229-6.231771 14.262858-13.970286v-350.325028c0-7.753143-6.407314-13.999543-14.262858-13.999543h-90.682514a14.1312 14.1312 0 0 0-14.248228 13.999543V367.981714c0 7.738514 6.407314 13.984914 14.248228 13.984915h90.682514zM501.994057 295.336229c7.855543 0 14.262857-6.231771 14.262857-13.984915v-263.621485c0-7.753143-6.407314-13.984914-14.262857-13.984915h-90.667886a14.1312 14.1312 0 0 0-14.248228 13.984915V281.351314c0 7.753143 6.407314 13.984914 14.248228 13.984915h90.667886zM870.824229 614.253714v-145.568914l-53.540572 54.213486-194.911086-231.979886L462.218971 452.754286l-235.958857-215.9616-38.429257 53.716114 276.085029 249.621943 158.456685-153.088L771.949714 558.123886l-54.198857 56.144457H870.838857zM91.633371 322.399086c12.068571 0 21.2992-9.128229 21.313829-21.065143 0-11.936914-9.245257-21.079771-21.313829-21.079772-12.0832 0-21.313829 9.128229-21.313828 21.065143 0 11.249371 9.947429 21.065143 21.313828 21.065143zM70.319543 596.202057c0-38.575543 16.427886-70.568229 55.661714-70.582857-39.233829 0-55.661714-36.673829-55.661714-70.5536 0 33.879771-13.9264 70.5536-55.690972 70.5536 41.764571 0 55.690971 32.007314 55.690972 70.582857zM992.724114 722.183314c4.973714-21.065143 9.947429-25.2928 31.275886-30.910171-21.313829-5.617371-25.6-9.8304-31.275886-30.895543-5.675886 21.065143-9.947429 25.278171-31.261257 30.895543 21.313829 5.617371 25.585371 9.8304 31.261257 30.910171zM924.525714 852.114286c14.189714-54.081829 26.287543-66.018743 81.700572-80.764343-55.413029-14.043429-66.794057-25.994971-81.7152-80.778972-14.204343 54.784-26.287543 66.018743-81.700572 80.778972 55.413029 14.043429 66.779429 25.980343 81.700572 80.764343z"  horiz-adv-x="1024" />
      
      <glyph glyph-name="icon_zhankai" unicode="&#58952;" d="M102.372352 830.464C102.372352 883.4048 166.065152 914.432 212.452352 884.0192l679.424-446.464a63.0784 63.0784 0 0 0 0-107.1104l-679.424-446.464C166.065152-146.432 102.372352-115.4048 102.372352-62.464V830.464z"  horiz-adv-x="1024" />
      
      <glyph glyph-name="a-youxi1" unicode="&#58951;" d="M653.949156 181.6576a46.717156 46.717156 0 1 1 93.457066 0 46.717156 46.717156 0 0 1-93.457066 0zM739.555556 275.0464a33.018311 33.018311 0 1 1 66.059377 0 33.018311 33.018311 0 0 1-66.059377 0zM655.610311 511.658667H500.622222c6.894933 33.427911 23.074133 77.300622 60.757334 77.596444 79.6672 0.682667 113.095111 63.214933 123.744711 116.371911a33.951289 33.951289 0 0 1-33.518934 40.732445 33.609956 33.609956 0 0 1-32.950044-27.010845c-4.9152-26.146133-18.727822-61.8496-57.981156-62.122666-84.627911-0.796444-119.421156-80.4864-129.592889-145.590045h-57.480533c-144.5888 0-262.144-117.5552-262.144-262.121244s117.5552-262.144 262.144-262.144h281.941333c144.5888 0 262.144 117.577956 262.144 262.144 0.091022 144.5888-117.464178 262.144-262.030222 262.144z m0-456.317156h-281.941333c-107.1104 0-194.173156 87.062756-194.173156 194.173156 0 107.1104 87.062756 194.173156 194.173156 194.173155h281.941333c107.1104 0 194.195911-87.062756 194.195911-194.173155 0-107.1104-87.085511-194.173156-194.195911-194.173156zM353.257244 351.778133a102.354489 102.354489 0 0 1-102.263466-102.263466 102.354489 102.354489 0 0 1 102.263466-102.263467 102.354489 102.354489 0 0 1 102.263467 102.263467 102.354489 102.354489 0 0 1-102.263467 102.263466z m0-135.304533a33.041067 33.041067 0 1 0 0 66.082133 33.041067 33.041067 0 0 0 0-66.082133z"  horiz-adv-x="1024" />
      
      <glyph glyph-name="icon_zixun_xuanzhong" unicode="&#58948;" d="M481.6384 277.3504a29.184 29.184 0 0 0 21.7088-10.0864 36.6592 36.6592 0 0 0 9.0112-24.32 38.2464 38.2464 0 0 0-2.3552-13.2096 34.9696 34.9696 0 0 0-6.656-11.1104 30.8224 30.8224 0 0 0-9.9328-7.5264 27.904 27.904 0 0 0-11.776-2.56H352.4096a27.9552 27.9552 0 0 0-11.776 2.56 31.0272 31.0272 0 0 0-9.984 7.5264 35.072 35.072 0 0 0-6.656 11.1104 38.2464 38.2464 0 0 0-2.3552 13.2096c0 9.1136 3.2768 17.8688 9.0112 24.32a29.184 29.184 0 0 0 21.76 10.0864h129.2288zM671.8976 419.5328a29.184 29.184 0 0 0 21.7088-10.0352 38.144 38.144 0 0 0 6.656-37.5296 34.9184 34.9184 0 0 0-6.656-11.1616 30.6688 30.6688 0 0 0-9.984-7.4752 27.8528 27.8528 0 0 0-11.7248-2.6112h-319.488a27.8528 27.8528 0 0 0-11.776 2.6112 30.7712 30.7712 0 0 0-9.984 7.4752 34.9696 34.9696 0 0 0-6.656 11.1616 38.2464 38.2464 0 0 0-2.3552 13.1584c0 9.1648 3.2768 17.92 9.0112 24.3712a29.184 29.184 0 0 0 21.76 10.0352h319.488zM671.8976 555.8784c8.1408 0 15.9232-3.584 21.7088-10.0352a38.0928 38.0928 0 0 0 6.656-37.4784 35.1744 35.1744 0 0 0-6.656-11.2128 30.72 30.72 0 0 0-9.984-7.4752 27.8016 27.8016 0 0 0-11.7248-2.56h-319.488a27.904 27.904 0 0 0-11.776 2.56 30.8224 30.8224 0 0 0-9.984 7.4752 35.1232 35.1232 0 0 0-6.656 11.2128 38.0928 38.0928 0 0 0-2.3552 13.1584c0 9.1136 3.2768 17.92 9.0112 24.32a29.184 29.184 0 0 0 21.76 10.0352h319.488zM819.2 896a204.8 204.8 0 0 0 204.8-204.8v-614.4a204.8 204.8 0 0 0-204.8-204.8H204.8a204.8 204.8 0 0 0-204.8 204.8V691.2a204.8 204.8 0 0 0 204.8 204.8h614.4zM315.648 753.8176c-23.3472 0-45.7728-10.4448-62.3104-28.9792a105.216 105.216 0 0 1-25.8048-69.8368v-542.0032c0-26.2144 9.3184-51.3536 25.8048-69.8368 16.5376-18.5344 38.912-28.9792 62.3104-28.9792h280.1664c110.7968 0 200.6528 100.7616 200.6528 225.024V655.0016c0 26.2144-9.3184 51.3024-25.8048 69.8368a83.6096 83.6096 0 0 1-62.3104 28.9792h-392.704z"  horiz-adv-x="1024" />
      
      <glyph glyph-name="icon_vx" unicode="&#58949;" d="M687.900444 481.28c147.911111 0 267.832889-100.295111 267.832889-223.971556 0-72.590222-41.244444-137.102222-105.130666-178.062222l-2.503111-1.536 25.884444-81.123555-96.824889 49.436444a315.448889 315.448889 0 0 0-89.315555-12.8c-147.911111 0-267.946667 100.295111-267.946667 224.085333 0 123.676444 120.035556 224.028444 267.946667 224.028445zM385.365333 725.333333c158.663111 0 290.133333-97.450667 313.457778-224.711111a279.210667 279.210667 0 0 1-13.368889 0.398222c-159.516444 0-288.824889-108.487111-288.824889-242.176 0-21.902222 3.527111-43.121778 10.012445-63.317333a374.328889 374.328889 0 0 0-126.976 14.449778L164.977778 151.608889l30.72 96.028444-2.958222 1.820445C117.077333 297.870222 68.266667 374.272 68.266667 460.117333 68.266667 606.606222 210.204444 725.333333 385.365333 725.333333z m209.237334-354.474666a37.034667 37.034667 0 0 1-37.603556-36.408889c0-20.138667 16.839111-36.408889 37.603556-36.408889a37.091556 37.091556 0 0 1 37.660444 36.408889 37.034667 37.034667 0 0 1-37.660444 36.408889z m186.424889 0a36.977778 36.977778 0 0 1-37.546667-36.408889c0-20.138667 16.782222-36.408889 37.546667-36.408889a37.091556 37.091556 0 0 1 37.660444 36.408889 37.034667 37.034667 0 0 1-37.660444 36.408889zM275.057778 594.488889a43.804444 43.804444 0 0 1-44.544-43.121778c0-23.779556 19.911111-43.064889 44.544-43.064889 24.576 0 44.544 19.342222 44.544 43.064889a43.804444 43.804444 0 0 1-44.544 43.121778z m220.672 0a43.804444 43.804444 0 0 1-44.544-43.121778c0-23.779556 19.911111-43.064889 44.544-43.064889a43.804444 43.804444 0 0 1 44.487111 43.064889 43.804444 43.804444 0 0 1-44.487111 43.121778z"  horiz-adv-x="1024" />
      
      <glyph glyph-name="icon_fankui" unicode="&#58950;" d="M894.421333 629.333333c-8.064 0-14.592 5.973333-14.592 13.226667V189.44c0 7.253333 6.485333 13.226667 14.805334 13.226667H412.672a31.616 31.616 0 0 1-16.554667-4.650667l-172.842666-106.666667 45.952-22.016v106.666667c0 14.72-13.141333 26.666667-29.44 26.666667H129.621333c8.064 0 14.592-5.973333 14.592-13.226667V642.56c0-7.253333-6.528-13.226667-14.592-13.226667h764.842667zM85.333333 642.56V189.44c0-22.186667 19.797333-40.106667 44.245334-40.106667h110.250666l-29.44 26.666667v-106.666667c0-21.418667 26.453333-34.090667 45.994667-22.058666l172.842667 106.666666-16.554667-4.608h481.962667c24.405333 0 44.032 18.048 44.032 40.106667V642.56c0 22.186667-19.797333 40.106667-44.245334 40.106667H129.578667C105.130667 682.666667 85.333333 664.704 85.333333 642.56z m617.941334-186.538667c16.256 0 29.44 11.946667 29.44 26.666667s-13.184 26.666667-29.44 26.666667h-397.226667c-16.256 0-29.44-11.946667-29.44-26.666667s13.184-26.666667 29.44-26.666667h397.226667z m-397.226667-80c-16.256 0-29.44-11.946667-29.44-26.666666s13.184-26.666667 29.44-26.666667h397.226667c16.256 0 29.44 11.946667 29.44 26.666667s-13.184 26.666667-29.44 26.666666h-397.226667z"  horiz-adv-x="1024" />
      
      <glyph glyph-name="icon_Mac" unicode="&#58935;" d="M849.109333 191.104c-1.024-3.157333-17.28-59.861333-57.216-118.186667-34.56-50.346667-70.357333-101.034667-126.805333-101.930666-55.552-0.981333-73.301333 33.152-136.704 33.152-63.36 0-83.242667-32.256-135.722667-34.133334-54.272-2.218667-96 54.954667-130.730666 105.045334-70.912 102.528-125.525333 290.56-52.309334 416.597333 36.053333 63.061333 100.821333 103.168 171.392 104.234667 53.162667 1.024 103.722667-36.010667 136.021334-36.010667 33.152 0 94.336 44.8 158.890666 38.101333 27.050667-1.152 102.613333-11.306667 151.338667-81.92-3.84-2.56-90.453333-53.717333-89.472-157.738666 1.28-125.610667 110.165333-166.784 111.36-167.210667zM633.685333 665.258667c29.098667 35.498667 48.213333 84.309333 43.221334 132.778666-41.557333-1.621333-92.202667-27.605333-122.282667-62.890666-26.624-30.805333-50.090667-80.384-43.52-128.298667 46.165333-2.773333 93.653333 24.192 122.581333 58.410667z"  horiz-adv-x="1024" />
      
      <glyph glyph-name="icon_zixun_moren" unicode="&#58936;" d="M0 896m204.8 0l614.4 0q204.8 0 204.8-204.8l0-614.4q0-204.8-204.8-204.8l-614.4 0q-204.8 0-204.8 204.8l0 614.4q0 204.8 204.8 204.8ZM708.352 753.7664h-392.704c-23.3472 0-45.7728-10.3936-62.3104-28.928a105.1648 105.1648 0 0 1-25.8048-69.8368v-542.0032c0-26.2144 9.3184-51.3024 25.8048-69.8368 16.5376-18.5344 38.912-28.928 62.3104-28.928h280.1664c110.7968 0 200.6528 100.7104 200.6528 224.9216V655.0016c0 26.2144-9.3184 51.3024-25.8048 69.8368a83.5584 83.5584 0 0 1-62.3104 28.928z m-195.9936-510.8224a38.0416 38.0416 0 0 0-2.3552-13.2096 34.9184 34.9184 0 0 0-6.656-11.1616 30.72 30.72 0 0 0-9.9328-7.4752 27.8528 27.8528 0 0 0-11.776-2.56H352.4096a27.8528 27.8528 0 0 0-11.776 2.56 30.72 30.72 0 0 0-9.984 7.4752 34.9184 34.9184 0 0 0-6.656 11.1616 38.0416 38.0416 0 0 0-2.304 13.2096c0 9.1136 3.2256 17.8688 8.96 24.32a29.1328 29.1328 0 0 0 21.76 10.0864h129.2288c8.1408 0 15.9744-3.6352 21.7088-10.0864a36.6592 36.6592 0 0 0 9.0112-24.32z m190.2592 142.1824a38.144 38.144 0 0 0-2.3552-13.1584 35.072 35.072 0 0 0-6.656-11.1616 30.8224 30.8224 0 0 0-9.9328-7.4752 27.8528 27.8528 0 0 0-11.776-2.6112h-319.488a27.8528 27.8528 0 0 0-11.776 2.56 30.7712 30.7712 0 0 0-9.984 7.5264 35.0208 35.0208 0 0 0-6.656 11.1616 38.0928 38.0928 0 0 0-2.304 13.1584c0 9.1648 3.2256 17.92 8.96 24.3712a29.1328 29.1328 0 0 0 21.76 10.0352h319.488c8.192 0 15.9744-3.584 21.7088-10.0352a36.608 36.608 0 0 0 9.0112-24.3712z m0 136.3968a38.144 38.144 0 0 0-2.3552-13.2096 35.0208 35.0208 0 0 0-6.656-11.1616 30.7712 30.7712 0 0 0-9.9328-7.4752 27.8528 27.8528 0 0 0-11.776-2.56h-319.488a27.8528 27.8528 0 0 0-11.776 2.56 30.72 30.72 0 0 0-9.984 7.4752 34.9696 34.9696 0 0 0-6.656 11.1616 38.0928 38.0928 0 0 0-2.304 13.2096c0 9.1136 3.2256 17.8688 8.96 24.32a29.1328 29.1328 0 0 0 21.76 10.0864h319.488c8.192 0 15.9744-3.584 21.7088-10.0864a36.608 36.608 0 0 0 9.0112-24.32z"  horiz-adv-x="1024" />
      
      <glyph glyph-name="icon_liulanliang" unicode="&#58937;" d="M793.344 385.024c-0.8192 2.9696-4.1472 15.0528-16.7936 35.9424a374.5792 374.5792 0 0 1-63.5904 76.7488C656.384 550.6048 584.704 588.8 512 588.8s-144.4352-38.1952-200.96-91.136a374.784 374.784 0 0 1-63.5904-76.6976c-12.6464-20.8896-15.9232-32.9728-16.7936-35.9936l-0.1024-0.512 0.1024-0.512c0.8704-3.0208 4.1472-15.0528 16.7936-35.9424 14.2336-23.552 35.9424-50.8416 63.5904-76.8C367.616 218.4192 439.296 180.224 512 180.224s144.4352 38.1952 200.96 91.0848c27.648 25.9072 49.3568 53.248 63.5904 76.7488 12.6464 20.8896 15.9744 32.9216 16.7936 35.9424l0.1536 0.512-0.1536 0.512zM870.4 384.512c0-76.6976-160.4608-281.1392-358.4-281.1392s-358.4 204.4416-358.4 281.088C153.6 461.1072 314.0608 665.6 512 665.6s358.4-204.4928 358.4-281.088z m-358.4-102.1952c56.576 0 102.4 45.7216 102.4 102.144a102.2976 102.2976 0 0 1-102.4 102.1952c-56.576 0-102.4-45.7216-102.4-102.1952 0-56.4224 45.824-102.144 102.4-102.144z"  horiz-adv-x="1024" />
      
      <glyph glyph-name="icon_xiazailiang" unicode="&#58938;" d="M560 716.8a48 48 0 1 1-96 0h96zM512 716.8h-48V256h96V716.8H512z"  horiz-adv-x="1024" />
      
      <glyph glyph-name="icon_daxiao" unicode="&#58939;" d="M518.4512 694.1696a12.8 12.8 0 0 1-12.9024 0L280.9856 563.2 512 428.4416 742.9632 563.2l-224.512 130.9696z m262.3488-197.8368l-230.4-134.4v-269.4656l224.0512 130.6624a12.8 12.8 0 0 1 6.3488 11.0592v262.144z m-307.2-403.8656v269.4656l-230.4 134.4v-262.144a12.8 12.8 0 0 1 6.3488-11.0592l224.0512-130.6624zM466.8416 760.5248a89.6 89.6 0 0 0 90.3168 0l275.0464-160.4608a51.2 51.2 0 0 0 25.3952-44.2368v-321.6384a89.6 89.6 0 0 0-44.4416-77.3632l-274.6368-166.4a51.2 51.2 0 0 0-53.0432 0l-274.6368 166.4a89.6 89.6 0 0 0-44.4416 77.3632V555.8272a51.2 51.2 0 0 0 25.3952 44.2368l275.0464 160.4608z"  horiz-adv-x="1024" />
      
      <glyph glyph-name="icon_youxi_xuanzhong" unicode="&#58940;" d="M368.2304 554.6496c-20.6336 0-36.352-18.3296-36.352-39.8336v-35.9936h-41.216c-18.7904 0-34.6624-17.3568-34.6624-37.888 0-20.5824 15.872-37.9904 34.6624-37.9904h41.1648v-34.816c0-22.5792 15.7696-39.936 36.4032-41.0112h3.0208c20.6848 0 36.4544 18.3808 36.4544 39.936V402.944h41.2672c18.7392 0 34.56 17.408 34.56 37.9392 0 20.5824-15.8208 37.888-34.56 37.888h-41.2672v36.0448c0 22.6304-16.7936 39.8336-36.4544 39.8336h-3.0208zM725.2992 480.7168a42.9056 42.9056 0 0 1-39.424-26.368 42.8032 42.8032 0 0 1 9.2672-46.4896 43.0592 43.0592 0 0 1 30.1568-12.4928 43.1104 43.1104 0 0 1 30.208 12.4928 42.9056 42.9056 0 0 1 9.216 46.4896 42.8032 42.8032 0 0 1-39.424 26.368zM611.5328 480.7168a43.008 43.008 0 0 1-30.208-12.4928 43.008 43.008 0 0 1-12.4928-30.208 42.9568 42.9568 0 0 1 26.368-39.424 43.1104 43.1104 0 0 1 32.6656 0 43.0592 43.0592 0 0 1 23.04 23.0912 42.8544 42.8544 0 0 1-9.216 46.5408 42.8032 42.8032 0 0 1-30.1568 12.4928zM127.5392 896A127.8464 127.8464 0 0 1 0 768.3584V-1.024A128.768 128.768 0 0 1 128.256-128h768.1536A127.8976 127.8976 0 0 1 1024-0.3584V768.3584A127.8976 127.8976 0 0 1 896.4096 896H127.488z m410.5728-256l181.248-0.3072c160.9728-5.12 290.56-468.48 84.6336-508.6208-97.1776-18.8416-140.6464 51.968-192.256 125.44H412.2624c-51.6096-73.472-95.0784-144.2816-192.256-125.44-205.9776 40.1408-76.3904 503.552 84.5824 508.6208L485.888 640h52.224z"  horiz-adv-x="1024" />
      
      <glyph glyph-name="icon_youxi_moren" unicode="&#58941;" d="M128.256-128h768.1536A127.8464 127.8464 0 0 1 1024-0.3584V768.3584A127.8464 127.8464 0 0 1 896.4096 896H127.5904A127.8464 127.8464 0 0 1 0 768.3584V-1.024A128.768 128.768 0 0 1 128.256-128zM304.64 639.6928c-160.9728-5.0176-290.6112-468.48-84.6336-508.6208 97.2288-18.8416 140.6976 51.968 192.256 125.44h199.5264c51.5584-73.472 95.0272-144.2816 192.256-125.44 205.9264 40.192 76.288 503.5008-84.6336 508.6208L538.1632 640H485.888l-181.2992-0.3072zM371.2 554.6496c19.712 0 36.4544-17.2032 36.4544-39.8336v-35.9936h41.2672c18.7904 0 34.6112-17.3568 34.6112-37.888 0-20.5824-15.872-37.9904-34.6112-37.9904h-41.2672v-35.8912c0-21.5552-15.7696-39.936-36.4544-39.936h-2.9696c-20.6848 1.0752-36.4032 18.432-36.4032 41.0112v34.816h-41.216c-18.7904 0-34.6112 17.408-34.6624 37.9392 0 20.5824 15.872 37.888 34.6624 37.888h41.216v36.0448c0 21.504 15.7696 39.7824 36.352 39.8336h3.072z m354.048-73.9328a42.8544 42.8544 0 0 0 42.752-42.6496 42.9568 42.9568 0 0 0-26.368-39.424 42.9568 42.9568 0 0 0-46.4896 9.216 42.8544 42.8544 0 0 0 0 60.3648 42.9056 42.9056 0 0 0 30.1056 12.4928z m-113.7152 0a42.7008 42.7008 0 1 0-0.1024-85.4016 42.7008 42.7008 0 0 0 0.1024 85.4016z"  horiz-adv-x="1024" />
      
      <glyph glyph-name="icon_shijian" unicode="&#58942;" d="M512 102.4a281.6 281.6 0 1 0 0 563.2 281.6 281.6 0 0 0 0-563.2z m0-76.8a358.4 358.4 0 1 1 0 716.8 358.4 358.4 0 0 1 0-716.8zM473.6 550.4a38.4 38.4 0 0 0 76.8 0v-187.4944l112.9472-37.2736a37.376 37.376 0 1 0-23.4496-70.9632l-133.5296 44.032a38.4 38.4 0 0 0-25.1904 15.0528 37.376 37.376 0 0 0-7.5776 26.6752V550.4z"  horiz-adv-x="1024" />
      
      <glyph glyph-name="icon_fanhuidingbu" unicode="&#58943;" d="M461.184 535.552a85.333333 85.333333 0 0 0 114.176-5.888l271.573333-271.530667 2.901334-3.2a42.666667 42.666667 0 0 0-60.032-60.074666l-3.242667 2.944L514.986667 469.333333l-271.530667-271.530666a42.666667 42.666667 0 0 0-60.330667 60.330666l271.530667 271.530667 6.485333 5.888z"  horiz-adv-x="1024" />
      
      <glyph glyph-name="icon_win" unicode="&#58944;" d="M523.818667 704.597333v-288.896h381.994666V767.914667l-381.994666-63.317334z m0-642.218666l381.994666-62.165334v352h-381.994666v-289.834666z m-403.712 353.408h322.901333V694.101333L120.106667 640.597333v-224.810666z m0-290.389334l322.901333-52.608v279.424H120.106667v-226.816z"  horiz-adv-x="1024" />
      
      <glyph glyph-name="icon_banbenhao" unicode="&#58945;" d="M793.6 384a281.6 281.6 0 1 1-563.2 0 281.6 281.6 0 0 1 563.2 0z m76.8 0a358.4 358.4 0 1 0-716.8 0 358.4 358.4 0 0 0 716.8 0zM473.6 550.4a38.4 38.4 0 0 0 76.8 0v-230.4a38.4 38.4 0 0 0-76.8 0v230.4z m0-343.04a38.4 38.4 0 1 1 76.8 0 38.4 38.4 0 0 1-76.8 0z"  horiz-adv-x="1024" />
      
      <glyph glyph-name="icon_dy" unicode="&#58946;" d="M861.070222 462.336a302.307556 302.307556 0 0 0-191.089778 69.12v-313.116444c0-159.914667-113.720889-289.450667-254.008888-289.450667-140.344889 0-254.065778 129.536-254.065778 289.450667 0 159.857778 113.777778 289.393778 254.065778 289.393777 13.994667 0 27.648-1.308444 40.96-3.811555v-165.888a101.603556 101.603556 0 0 1-39.936 8.192c-62.577778 0-113.379556-57.799111-113.379556-129.137778s50.801778-129.137778 113.379556-129.137778 113.322667 57.856 113.322666 129.137778V839.111111h141.710222c0-119.580444 85.105778-216.462222 190.008889-216.462222v-160.256l-0.967111-0.056889z"  horiz-adv-x="1024" />
      
      <glyph glyph-name="icon_banben" unicode="&#58947;" d="M347.648 765.44a140.8 140.8 0 0 1-139.9296-125.2352l-38.5024-346.624A204.8 204.8 0 0 1 358.4 10.24h307.2a204.8 204.8 0 0 1 189.184 283.3408l-38.5024 346.624A140.8 140.8 0 0 1 676.352 765.44H347.648z m432.1792-492.544c13.7728-16.896 13.7728-36.1984 13.7728-57.856a128 128 0 0 0-128-128H358.4a128 128 0 0 0-128 128c0 21.6576 0 40.96 13.7728 57.856 13.7728 16.8448 64.3584 70.144 114.2272 70.144h307.2c49.8688 0 100.4544-53.2992 114.2272-70.144z m-13.3632 120.4224A203.8784 203.8784 0 0 1 665.6 419.84H358.4c-36.6592 0-71.0656-9.6256-100.864-26.5216l26.5216 238.3872A64 64 0 0 0 347.648 688.64h328.704a64 64 0 0 0 63.5904-56.9344l26.5216-238.3872zM409.6 215.04a25.6 25.6 0 0 1-25.6 25.6h-51.2a25.6 25.6 0 1 1 0-51.2h51.2a25.6 25.6 0 0 1 25.6 25.6z m76.8 25.6a25.6 25.6 0 1 1 0-51.2h204.8a25.6 25.6 0 0 1 0 51.2h-204.8z"  horiz-adv-x="1024" />
      
    </font>
</defs>
</svg>
